extratorrent - A Fan Made Alternative Login   |   Register
Important Information
Registrations are open now
-------------------------------------

Please click here to register with Extratorrent2 to recieve latest updates, add bookmarks and to post comments.

Friends
Friends

1) ProxyFix

Extratorrent2 > Categories > Movies > Ghost in the Shell (2017) 2160p HDR 5.1 x265 10bit Phun Psyz torrent


Browse Movies torrents

Ghost in the Shell (2017) 2160p HDR 5.1 x265 10bit Phun Psyz torrent


Ghost in the Shell (2017)
Name: Ghost in the Shell
Released Year: 2017
Runtime: 107 mins
Gener: Action, Crime, Drama
Director: Rupert Sanders
Country: USA, India, China, Japan, Hong Kong, UK, New Zealand, C
IMDB Rating: 6.7/10
Plot: In the near future, Major is the first of her kind: A human saved from a terrible crash, who is cyber-enhanced to be a perfect soldier devoted to stopping the world's most dangerous criminals.

Download torrent: Download Ghost in the Shell (2017) 2160p HDR 5.1 x265 10bit Phun Psyz torrent Magnet link Bookmark Torrent: Ghost in the Shell (2017) 2160p HDR 5.1 x265 10bit Phun Psyz   Ghost in the Shell (2017) 2160p HDR 5.1 x265 10bit Phun Psyz torrent
Info hash: 3F85DD1B523CEB5421126C6ADF710C2686C0E016
Category: Categories > Movies
Trackers:
View all torrent trackers >
Health:
 seeds: 6 ,  leechers: 10 |  Update >
Torrent language: English English
Total Size: 2.5 GB
Files List:
1    View torrent files >
Uploader:
PhunPsyz
Torrent added: June 5, 2018, 3:55 pm
Tags: Ghost, in, the, Shell, 2017, 2160p, x265, Phun, Psyz
IMDB: http://www.imdb.com/title/tt1219827
Users rating: ---, not rated. please login to rate.

Download Ghost in the Shell (2017) 2160p HDR 5.1 x265 10bit Phun Psyz torrent



Torrent Description

www.imdb.com/title/tt1219827

In the near future, Major is the first of her kind: A human saved from a terrible crash, who is cyber-enhanced to be a perfect soldier devoted to stopping the world's most dangerous criminals.

Source: TERMiNAL (HDR) (11.7 GiB)



Format : Matroska
Format version : Version 4 / Version 2
File size : 2.47 GiB
Duration : 1 h 46 min
Overall bit rate : 3 310 kb/s

Video
ID : 1
Format : HEVC
Format/Info : High Efficiency Video Coding
Format profile : Main @High
Codec ID : V_MPEGH/ISO/HEVC
Duration : 1 h 46 min
Bit rate : 2 924 kb/s
Width : 3 840 pixels
Height : 2 160 pixels
Display aspect ratio : 16:9
Frame rate mode : Constant
Frame rate : 23.976 (24000/1001) FPS
Color space : YUV
Chroma subsampling : 4:2:0
Bit depth : 10 bits
Bits/(Pixel*Frame) : 0.015
Stream size : 2.18 GiB (88%)
Writing library : x265 2.6:[Windows][GCC 7.1.0][64 bit] 10bit

Audio
ID : 2
Format : AC-3
Format/Info : Audio Coding 3
Format settings, Endianness : Big
Codec ID : A_AC3
Duration : 1 h 46 min
Bit rate mode : Constant
Bit rate : 320 kb/s
Channel(s) : 6 channels
Channel positions : Front: L C R, Side: L R, LFE
Sampling rate : 48.0 kHz
Frame rate : 31.250 FPS (1536 SPF)
Bit depth : 16 bits
Compression mode : Lossy
Stream size : 245 MiB (10%)
Title : Surround
Language : English

Text
Language : English
Language : English
Language : French
Language : Spanish
Language : Portuguese
Default : No
Forced : No


Download Ghost in the Shell (2017) 2160p HDR 5.1 x265 10bit Phun Psyz torrent


Related Torrents


Comments   (please login to add your comment!)

brazzers 27     daddys dirty     far     mag     14 2015     fucking wet beer festival with victoria     dead season     crime     evil hindi     in ass     bluray 720p     italian md webdl     home xxx     jav uncensored 10musume     in woods     fingering herself     denise     girls dvdrip     dual audio hindi english 2017     hazel     hevc 6ch mrn     curse of     brazzers big wet butts     allover30 alice     


Home - Browse Torrents

Made with love by an Extratorrent Fan!